Перейти к содержимому

Фото
- - - - -

Armin Van Buuren - A State Of Trance 2005


  • Вы не можете создать новую тему
  • Please log in to reply
12 ответов в этой теме

#1 Shade on Grey

Shade on Grey

    unfuckable

  • Постоялец
  • 5 502 сообщений
  • Откуда:the world of consciousness, where dreams do exist

Отправлено 17 Март 2005 - 16:56

Release date: 14.03.2005

Tracklist:

CD1 (Light)
1. Interstate - I found U
2. Hidden Logic pres. Luminary - Wasting
3. Markus Schulz feat. Anita Kelsey - First time
4. Max Graham feat. Jessica Jacobs - I know you're gone
5. Mike Foyle pres. Statica - Space guitar
6. Ava Mea - In the end
7. Elevation - Ocean rain
8. Locust - Aerospace (Probspot remix)
9. Armin van Buuren – Shivers
10. Enmass - Beyond horizon
11. Kyau vs. Albert - Falling anywhere (Rework)
12. Fragile feat. Alex Lemon - Inertia (Armin van Buuren remix)
13. Sophie Sugar - Call of tomorrow (John O'Callaghan remix)
14. Marcos - Cosmic string
15. John Askew - Mood swing

CD2 (Dark)
1. Peter Martin pres. Anthanasia - Simply blue
2. Nu Frequency – 808
3. Andy Moor – Halcyon
4. Ahmet Ertenu - Why (Derek Howell mix)
5. Oliver Lieb vs. Preach - Papel (Preach remix)
6. Remy – Crackdown
7. Gabriel & Dresden – Arcadia
8. Tilt - Twelve (Max Graham remix)
9. Matthew Dekay vs. Proluctors - The deep show
10. Recluse - Emotional void
11. Adam White feat. Martin Grech – Ballerina
12. Blank & Jones feat. Bobo - Perfect silence (E-Craig dub)
13. Kyau vs. Albert - Made of sun (KvA hard dub - AvB edit)
14. M.I.K.E. - Massive motion
15. Eyewall – Bad deal
16. Hammer & Bennett - Language (Santiago Nino dub tech mix)
17. Liquid Overdose – Ancient space (Fred Baker remix)

Скачать можно здесь: http://www.suddeninv....com/music.html

Сообщение изменено: Shade on Grey (17 Март 2005 - 18:08 )

  • 0
Solitudes on DI.FM Chillout Dreams Channel every second and fourth sunday of the month at 11:00 EST / 16:00 GMT
http://thedjlist.com/djs/MARTIN_GREY/

#2 Mihha Shu

Mihha Shu
  • Пользователь
  • 312 сообщений

Отправлено 17 Март 2005 - 17:59

имеется. хорошая вещь. особенно 2-ой диск :)
  • 0

#3 romulj

romulj

    in trance we trust

  • Постоялец
  • 558 сообщений

Отправлено 17 Март 2005 - 18:16

Имя Пользователя, tochno
  • 0
IN TRANCE WE TRUST

#4 уррф

уррф

    ушол

  • Постоялец
  • 5 330 сообщений

Отправлено 17 Март 2005 - 18:21

Жаль что сидюки одним файлом.
  • 0

#5 Shade on Grey

Shade on Grey

    unfuckable

  • Постоялец
  • 5 502 сообщений
  • Откуда:the world of consciousness, where dreams do exist

Отправлено 17 Март 2005 - 18:23

Жаль что сидюки одним файлом.

могу скинуть cue-sheet
  • 0
Solitudes on DI.FM Chillout Dreams Channel every second and fourth sunday of the month at 11:00 EST / 16:00 GMT
http://thedjlist.com/djs/MARTIN_GREY/

#6 Spe©t®um

Spe©t®um
  • Постоялец
  • 497 сообщений
  • Откуда:Tln

Отправлено 31 Март 2005 - 21:28

Shade on Grey, давай!
  • 0

#7 PLUR

PLUR

    Techno, Sex and nothing more!

  • Постоялец
  • 1 682 сообщений
  • Откуда:[kopli.tln.ee]

Отправлено 02 Апрель 2005 - 09:09

да ну, все равно бесит, что замиксовано...
  • 0
[ ++ :: D-Lab project //.com// :: ++ ]

#8 romulj

romulj

    in trance we trust

  • Постоялец
  • 558 сообщений

Отправлено 02 Апрель 2005 - 12:58

PLUR, da uspokoisja ty! ;)
  • 0
IN TRANCE WE TRUST

#9 PLUR

PLUR

    Techno, Sex and nothing more!

  • Постоялец
  • 1 682 сообщений
  • Откуда:[kopli.tln.ee]

Отправлено 02 Апрель 2005 - 14:41

romulj, ну не могу я такое слушать в миксах... ваще не люблю миксы слушать!
  • 0
[ ++ :: D-Lab project //.com// :: ++ ]

#10 romulj

romulj

    in trance we trust

  • Постоялец
  • 558 сообщений

Отправлено 02 Апрель 2005 - 14:50

kak tak?.. a na 5 elemente chto budet? razve ne budut miksy rubatj?
  • 0
IN TRANCE WE TRUST

#11 PLUR

PLUR

    Techno, Sex and nothing more!

  • Постоялец
  • 1 682 сообщений
  • Откуда:[kopli.tln.ee]

Отправлено 02 Апрель 2005 - 15:29

там будут сеты ;)
  • 0
[ ++ :: D-Lab project //.com// :: ++ ]

#12 Shade on Grey

Shade on Grey

    unfuckable

  • Постоялец
  • 5 502 сообщений
  • Откуда:the world of consciousness, where dreams do exist

Отправлено 02 Апрель 2005 - 17:03

Народ, вы вообще имеете понятие, что такое "микс", "сэт" и "компиляция" и чем они отличаются?!

CUE-sheet CD1

PERFORMER "Armin van Buuren"
TITLE "A state of trance 2005"
FILE "01-armin_van_buuren_-_a_state_of_trance_cd_1_light.mp3" MP3
  TRACK 01 AUDIO
    TITLE "i found you"
    PERFORMER "interstate"
    INDEX 01 00:00:00
  TRACK 02 AUDIO
    TITLE "wasting"
    PERFORMER "hidden logic presents luminary"
    INDEX 01 05:13:68
  TRACK 03 AUDIO
    TITLE "first time"
    PERFORMER "markus schulz"
    INDEX 01 09:24:71
  TRACK 04 AUDIO
    TITLE "i know you're gone"
    PERFORMER "max graham ft jessica jacobs"
    INDEX 01 14:58:05
  TRACK 05 AUDIO
    TITLE "space guitar"
    PERFORMER "mike foyle presents statica"
    INDEX 01 18:46:62
  TRACK 06 AUDIO
    TITLE "in the end"
    PERFORMER "ave mea"
    INDEX 01 23:37:20
  TRACK 07 AUDIO
    TITLE "ocean rain"
    PERFORMER "elevation"
    INDEX 01 26:57:58
  TRACK 08 AUDIO
    TITLE "aerospace (probspot remix)"
    PERFORMER "locust"
    INDEX 01 31:37:11
  TRACK 09 AUDIO
    TITLE "shivers"
    PERFORMER "armin van buuren"
    INDEX 01 37:20:61
  TRACK 10 AUDIO
    TITLE "beyond horizon"
    PERFORMER "enmass"
    INDEX 01 43:58:46
  TRACK 11 AUDIO
    TITLE "falling anywhere (rework)"
    PERFORMER "kyae vs albert"
    INDEX 01 49:41:53
  TRACK 12 AUDIO
    TITLE "inertia (armin van buuren remix)"
    PERFORMER "fragile ft alex lemon "
    INDEX 01 53:43:48
  TRACK 13 AUDIO
    TITLE "call of tomorrow (john o'callaghan remix)"
    PERFORMER "sophie sugar"
    INDEX 01 60:20:06
  TRACK 14 AUDIO
    TITLE "cosmicstring"
    PERFORMER "marcos"
    INDEX 01 64:55:09
  TRACK 15 AUDIO
    TITLE "mood swing"
    PERFORMER "john askew"
    INDEX 01 70:58:00


CUE-sheet CD2

PERFORMER "Armin van Buuren"
TITLE "A state of trance 2005"
FILE "02-armin_van_buuren_-_a_state_of_trance_cd_2_dark.mp3" MP3
  TRACK 01 AUDIO
    TITLE "simply blue"
    PERFORMER "peter martin present anthanasia"
    INDEX 01 00:00:00
  TRACK 02 AUDIO
    TITLE "808"
    PERFORMER "nu frequency"
    INDEX 01 05:44:70
  TRACK 03 AUDIO
    TITLE "halcyon"
    PERFORMER "andy moor"
    INDEX 01 08:16:49
  TRACK 04 AUDIO
    TITLE "why (derek howell mix)"
    PERFORMER "ahmet ertenu"
    INDEX 01 12:12:66
  TRACK 05 AUDIO
    TITLE "papel (preach remix)"
    PERFORMER "o. lieb vs preach"
    INDEX 01 14:47:62
  TRACK 06 AUDIO
    TITLE "crackdown"
    PERFORMER "remy"
    INDEX 01 18:10:05
  TRACK 07 AUDIO
    TITLE "arcadia"
    PERFORMER "gabriel & dresden"
    INDEX 01 21:10:33
  TRACK 08 AUDIO
    TITLE "twelve (max graham remix)"
    PERFORMER "tilt"
    INDEX 01 26:27:64
  TRACK 09 AUDIO
    TITLE "the deep show"
    PERFORMER "matthew dekay vs proluctors"
    INDEX 01 29:49:61
  TRACK 10 AUDIO
    TITLE "emotional void"
    PERFORMER "recluse"
    INDEX 01 34:23:69
  TRACK 11 AUDIO
    TITLE "ballerina"
    PERFORMER "adam white ft martin grech"
    INDEX 01 39:04:43
  TRACK 12 AUDIO
    TITLE "perfect silence (e-craig 212 vocal mix)"
    PERFORMER "blank & jones"
    INDEX 01 44:32:69
  TRACK 13 AUDIO
    TITLE "made of sun (kva hard dub - avb edit)"
    PERFORMER "kyau vs albert"
    INDEX 01 49:12:65
  TRACK 14 AUDIO
    TITLE "massive motion"
    PERFORMER "m.i.k.e."
    INDEX 01 56:02:03
  TRACK 15 AUDIO
    TITLE "bad deal"
    PERFORMER "eye wall"
    INDEX 01 60:42:67
  TRACK 16 AUDIO
    TITLE "language (santiago nino dub tech mix)"
    PERFORMER "hammer & bennet"
    INDEX 01 64:38:51
  TRACK 17 AUDIO
    TITLE "ancient space (fred baker remix)"
    PERFORMER "liquid overdose"
    INDEX 01 70:37:40


  • 0
Solitudes on DI.FM Chillout Dreams Channel every second and fourth sunday of the month at 11:00 EST / 16:00 GMT
http://thedjlist.com/djs/MARTIN_GREY/

#13 romulj

romulj

    in trance we trust

  • Постоялец
  • 558 сообщений

Отправлено 02 Апрель 2005 - 17:17

PLUR, a sety iz originalov chtoli budut? gde ty takoe slishal?
  • 0
IN TRANCE WE TRUST